Skip to main content

The Sundogs Live at The Five Spot on 2010-04-09


Topics Z-Man, Schoeps, CCM4v, FOB


The Five Spot
Atlanta, Georgia
4/9/2010

Source: Schoeps CCM4V'S(din)>Lunatec V2>Benchmark AD2K>
Sound Devices 722 (24/48)
FOB/DRFC/KFC/ZFC/AARP 10' From Stage, 7' High
DSP: Sound Devices 722>Sound Forge 9.0>CD Wave>flac(16)
Recorded By: Z-Man


Disc I

01. Tuning/Banter
02. Angst >
03. Peace Again
04. Deperation And Borrowed Time
05. (?) unknown (?)
06. (?) unknown (?)
07. Rebels
08. Valentine's Day
09. Elvis
10. It's Alright
11. Bitter Tears
12. Modern Day Miracle
13. Middle Of The Road
14. Instrument Of Change


Collection TheSundogs
Band/Artist The Sundogs
Venue The Five Spot
Location Atlanta, GA

Source Schoeps CCM4V'S(din)>Lunatec V2>Benchmark AD2K> Sound Devices 722 (24/48)
Lineage Sound Devices 722>Sound Forge 9.0>CD Wave>flac(16)
Taped by Z-Man
Transferred by Z-Man

Notes

Sundogs
The Five Spot
Atlanta, Georgia
4/9/2010

Source: Schoeps CCM4V'S(din)>Lunatec V2>Benchmark AD2K>
Sound Devices 722 (24/48)
FOB/DRFC/KFC/ZFC/AARP 10' From Stage, 7' High
DSP: Sound Devices 722>Sound Forge 9.0>CD Wave>flac(16)
Recorded By: Z-Man
Uploaded to LMA by: ekoostikal

Shntool:
length expanded size cdr WAVE problems fmt ratio filename
0:17.73 3170540 B --- -- ---xx flac 0.3393 sundogs2010-04-09d01t01.flac
2:33.65 27142124 B --- -- ---xx flac 0.5948 sundogs2010-04-09d01t02.flac
6:06.26 64623596 B --- -- ---xx flac 0.5934 sundogs2010-04-09d01t03.flac
4:51.06 51346556 B --- -- ---xx flac 0.5909 sundogs2010-04-09d01t04.flac
5:59.61 63471116 B --- -- ---xx flac 0.6097 sundogs2010-04-09d01t05.flac
5:59.19 63372332 B --- -- ---xx flac 0.5645 sundogs2010-04-09d01t06.flac
5:30.26 58273196 B --- -- ---xx flac 0.5682 sundogs2010-04-09d01t07.flac
6:22.23 67438940 B --- -- ---xx flac 0.5271 sundogs2010-04-09d01t08.flac
4:57.24 52447292 B --- -- ---xx flac 0.5996 sundogs2010-04-09d01t09.flac
5:12.08 55055660 B --- -- ---xx flac 0.5776 sundogs2010-04-09d01t10.flac
5:54.34 62525612 B --- -- ---xx flac 0.5331 sundogs2010-04-09d01t11.flac
6:42.57 71046908 B --- -- ---xx flac 0.5776 sundogs2010-04-09d01t12.flac
5:04.09 53646812 B --- -- ---xx flac 0.5905 sundogs2010-04-09d01t13.flac
8:41.50 92022044 B --- -- ---xx flac 0.5651 sundogs2010-04-09d01t14.flac
74:13.31 785582728 B 0.5733 (14 files)

Reviews

There are no reviews yet. Be the first one to write a review.
PEOPLE ALSO FOUND
The Sundogs
by The Sundogs
110
1
0
Source: Schoeps CCM4V'S(din)>Lunatec V2>Benchmark AD2K> Sound Devices 722 (24/48)
The Sundogs
259
1
0
Source: Soundcraft H2 SBD > Lunatec V2 > Benchmark AD2K > Sound Devices 722 (24/48)
Phil Lesh and Friends
by Phil Lesh and Friends
1,032
1
0
Source: 2x Beyerdynamic MC930's(Matched Stereo Pair)(OTRF)@ 12 ft high >Canare Cables>Digi-Mod Edirol UA5>Nomad JB3(44.1 khz)
New Riders of the Purple Sage
by New Riders of the Purple Sage
226
1
0
Source: Schoeps CCM4V'S(din)>Lunatec V2>Benchmark AD2K> Sound Devices 722 (24/48) BOB/DFC/KFC/ZFC/AARP 30' From Stage, 7' High
Phil Lesh and Friends
by Phil Lesh and Friends
2,456
1
1
( 1 reviews )
Source: Neumann Km 184 Mics > Lunatec V2 > Korg Mr-1000
The Macpodz
by The Macpodz
114
1
0
Source: schoeps CCM4V'S(din)>Lunatec V2>Benchmark AD2K> Sound Devices 722 (24/48)
Charlie Wooton Project
by Charlie Wooton Project
204
1
0
Source: Schoeps CCM4V'S(din)>Lunatec V2>Benchmark AD2K> Sound Devices 722 (24/48) FOB/DFC/KFC/ZFC/AARP 8' From Stage, 7' High
Phil Lesh and Friends
by Phil Lesh and Friends
611
1
0
Source: 2x Beyerdynamic MC930's(Matched Stereo Pair)(OTRF)@ 12 ft high >Canare Cables>Digi-Mod Edirol UA5>Nomad JB3(44.1 khz)
Grace Potter and the Nocturnals
by Grace Potter and the Nocturnals
1,521
1
0
Source: Schoeps CCM4V'S(din)>Lunatec V2>Sound Devices 722 (24/48) location: FOB/DFC/KFC/ZFC/AARP 26'Feet From Stage 7' High
Charlie Wooton Project
by Charlie Wooton Project
84
2
0
Source: Schoeps CCM4V'S(din)>Lunatec V2>Benchmark AD2K> Sound Devices 722 (24/48) FOB/DFC/KFC/ZFC/AARP 3' From Stage, 7' High